Ad blocking detected, consider supporting www.OpenSubtitles.org in an other way
X
Advanced search
Watch movies with subtitles using Open Subtitles MKV Player. It is free and clean, works under Windows.
We recommend you to visit links in section interesting links
Hide ads

Return to Halloweentown Bosnian subtitles (2006) 1CD srt

Download: Return to Halloweentown movie

film

Buy at Amazon

Subtitle details

Download
Thanks

Rate quality of subtitles

Rate QUALITY of subtitles with 1 point (bad)  Rate QUALITY of subtitles with 3 point (poor)  Rate QUALITY of subtitles with 5 point (okay)  Rate QUALITY of subtitles with 7 point (good)  Rate QUALITY of subtitles with 10 point (excellent)

Comment

Forget about web, download subtitles using Open Subtitles MKV Player

Subtitle filenameReturn.To.Halloweentown.2006.DVDRip.XviD-VoMiT.BS.srt (94432bytes) show preview

Uploader commentFormat : AVI
Format/Info : Audio Video Interleave
File size : 702 MiB
Duration : 1h 27mn
Overall bit rate : 1 118 Kbps
Writing application : Nandub v1.0rc2
Writing library : Nandub build 1852/release
Video
ID : 0
Format : MPEG-4 Visual
Format profile : Advanced [email protected]
Format settings, BVOP : Yes
Format settings, QPel : No
Format settings, GMC : No warppoints
Format settings, Matrix : Default (H.263)
Muxing mode : Packed bitstream
Codec ID : XVID
Codec ID/Hint : XviD
Duration : 1h 27mn
Bit rate : 943 Kbps
Width : 576 pixels
Height : 416 pixels
Display aspect ratio : 1.385
Frame rate : 23.976 fps
Color space : YUV
Chroma subsampling : 4:2:0
Bit depth : 8 bits
Scan type : Progressive
Bits/(Pixel*Frame) : 0.164
Stream size : 592 MiB (84%)
Writing library : XviD 1.1.2 (UTC 2006-11-01)
Audio
ID : 1
Format : MPEG Audio
Format version : Version 1
Format profile : Layer 3
Mode : Joint stereo
Mode extension : MS Stereo
Codec ID : 55
Codec ID/Hint : MP3
Duration : 1h 27mn
Bit rate mode : Variable
Bit rate : 160 Kbps
Channel(s) : 2 channels
Sampling rate : 48.0 KHz
Video delay : 480ms
Stream size : 102 MiB (15%)
Alignment : Split accross interleaves
Interleave, duration : 24 ms (0.58 video frame)
Interleave, preload duration : 1135 ms
Writing library : LAME3.90.
Encoding settings : -m j -V 4 -q 2 -lowpass 18 --abr 160
Release nameReturn.To.Halloweentown.2006.DVDRip.XviD-VoMiT23.976 FPS
Uploaderigor116 @ . downloaded58x () . Remove from favouritesAdd to favourites . Correct subtitlesCorrect subtitles

Uploaded from SubDownloader 1.2.9 developed by capiscuas

Comment

log-in to post comments.

Download Return to Halloweentown at 25 MBit
The.Walking.Dead.S07E06.1080p.WEB-DL.DD5 (2071 MB) Elementary.S05E08.HDTV.XviD-FUM[ettv].av (348 MB)
Trolls 2016 NEW HDTS x264 AC3 TiTAN.mkv (1248 MB) The.Walking.Dead.S07E06.1080p.WEB-DL.DUA (2071 MB)
Return to Halloweentown subtitles Bosnian
Release name#CD UploadedDownloadedSubtitle ratingUploader
dvdrip.eng.1CD35x 0.00titlovic
Return to Halloweentown1CD4228x 0.00
Interesting links
All subtitles for this movie in this languageAll subtitles for this movie
All subtitles from this userRequest this subtitle for a different release
About movie:About movie @ http://www.imdb.comFind file:Return to Halloweentown downloadDownload warez
Release:Release @ http://www.btarena.orgRelease @ http://nfo.raidrush.wsOfficial site:Disney Channel [us]
Trailers:Trailers @ http://www.imdb.comPosters:Return to Halloweentown movie postersPosters @ http://www.imdb.com
Covers:Covers @ http://www.allcdcovers.comCovers @ http://www.cdcovers.ccCovers @ http://www.cdcovers.to
Subtitles:Subtitles @ https://hitsubtitles.comEnglish Subtitles Return to HalloweentownOthers:Your link here
Movie detailsAKA:Halloweentown IV (eng), Halloweentown: Witch U. (eng)
Movie Rating:5.8 / 10 (3599)
[ Unlock The Ultimate Secret This October! ] - As Halloweentown prepares to celebrate its 1,000th anniversary, Marnie Piper and her brother Dylan return to Witch University, where trouble is in session from the Sinister Sisters and from someone who's plotting to use Marnie's powers for evil.
Directed by:
Country:
Language:
Hide ads
download subtitle