Missing Privacy  Support us:
X
Advanced search
Watch movies with subtitles using Open Subtitles MKV Player. It is free and clean, works under Windows.

Yogi Bear English subtitles (2010) 1CD srt

film

Buy at Amazon

Subtitle details

Download
Thanks1 thanks received

Rate quality of subtitles

Rate QUALITY of subtitles with 1 point (bad)  Rate QUALITY of subtitles with 3 point (poor)  Rate QUALITY of subtitles with 5 point (okay)  Rate QUALITY of subtitles with 7 point (good)  Rate QUALITY of subtitles with 10 point (excellent)

Comment

Stream this movie on alluc.com

Subtitle filenameYogi.Bear.DVDRip.XviD-ARROW.EN.srt (95453bytes) show preview

Uploader commentFormat : AVI
Format/Info : Audio Video Interleave
File size : 679 MiB
Duration : 1h 20mn
Overall bit rate : 1 181 Kbps
Writing application : VirtualDubMod 1.5.10.2 (build 2542/release)
Writing library : VirtualDubMod build 2542/release
Video
ID : 0
Format : MPEG-4 Visual
Format profile : Advanced [email protected]
Format settings, BVOP : Yes
Format settings, QPel : No
Format settings, GMC : No warppoints
Format settings, Matrix : Default (H.263)
Codec ID : XVID
Codec ID/Hint : XviD
Duration : 1h 20mn
Bit rate : 1 030 Kbps
Width : 640 pixels
Height : 352 pixels
Display aspect ratio : 16:9
Frame rate : 23.976 fps
Color space : YUV
Chroma subsampling : 4:2:0
Bit depth : 8 bits
Scan type : Progressive
Bits/(Pixel*Frame) : 0.191
Stream size : 592 MiB (87%)
Writing library : XviD 61
Audio
ID : 1
Format : MPEG Audio
Format version : Version 1
Format profile : Layer 3
Mode : Joint stereo
Mode extension : MS Stereo
Codec ID : 55
Codec ID/Hint : MP3
Duration : 1h 20mn
Bit rate mode : Variable
Bit rate : 139 Kbps
Minimum bit rate : 32.0 Kbps
Channel(s) : 2 channels
Sampling rate : 48.0 KHz
Stream size : 79.8 MiB (12%)
Alignment : Aligned on interleaves
Interleave, duration : 24 ms (0.58 video frame)
Interleave, preload duration : 233 ms
Writing library : LAME3.98r
Encoding settings : -m j -V 4 -q 0 -lowpass 17.5 --vbr-new -b 32
Release nameYogi.Bear.DVDRip.XviD-ARROW23.976 FPS
Uploaderigor116 @ . downloaded2930x () . Remove from favouritesAdd to favourites . Correct subtitlesCorrect subtitles

Uploaded from SubDownloader 1.2.9 developed by capiscuas

Comment

log-in to post comments.

Yogi Bear subtitles English
Release name#CD UploadedDownloadedSubtitle ratingUploader
Yogi Bear1CD581x 0.00demonseye
Yogi.Bear.350MB.BRRip.x264-RippeR1CD387x 0.00
Yogi Bear DVDRip XviD-ARROW1CD1855x 0.00
Yogi BearSubtitles for hearing impaired1CD319x 0.00
Yogi.Bear.720p.BluRay.x264-CROSSBOWSubtitles for hearing impaired1CD706x 0.00
Yogi.Bear.2010.720p.BRRip.x264.Feel-Free1CD910x 0.00
Yogi Bear.[2010].DVDRIP.DIVX.[Eng]-DUQASubtitles from trusted sourceSubtitles for hearing impaired1CD535x 0.00
Yogi.Bear.2010.BRRip.XviD.AC3-SANTi1CD1109x 0.00
Yogi.Bear.720p.BluRay.x264-CROSSBOW1CD2156x 0.00
Yogi.Bear.720p.BluRay.x264-CROSSBOWSubtitles for hearing impaired1CD2450x 0.00
Interesting links
All subtitles for this movie in this languageAll subtitles for this movie
All subtitles from this userRequest this subtitle for a different release
About movie:About movie @ http://www.imdb.comFind file:Yogi Bear downloadYogi Bear SevenTorrentsDownload warez
Release:Release @ http://www.btarena.orgRelease @ http://nfo.raidrush.wsOfficial site:Official site | Official site [fr]
Trailers:Trailers @ http://www.imdb.comPosters:Yogi Bear movie postersPosters @ http://www.imdb.com
Covers:Covers @ http://www.allcdcovers.comCovers @ http://www.cdcovers.ccCovers @ http://www.cdcovers.to
Subtitles:Subtitles @ http://subtitles.movieEnglish Subtitles Yogi BearOthers:Your link here
Movie detailsAKA:Ведмiдь Йогi (eng)
Movie Rating:4.6 / 10 (17274)
[ Life's a Pic-A-Nic ] - Jellystone Park has been losing business, so greedy Mayor Brown decides to shut it down and sell the land. That means families will no longer be able to experience the natural beauty of the outdoors -- and, even worse, Yogi and Boo Boo will be tossed out of the only home they've ever known. Faced with his biggest challenge ever, Yogi must prove that he really is "smarter than the average bear" as he and Boo Boo join forces with their old nemesis Ranger Smith to find a way to save Jellystone Park from closing forever.
Directed by:
Language:
download subtitle