Missing Privacy  Support us:
X
Advanced search
Watch movies with subtitles using Open Subtitles MKV Player. It is free and clean, works under Windows.
We recommend you to visit links in section interesting links
Hide ads

Subtitles for hearing impaired

Snake Eyes English subtitles (1998) 1CD srt

Download: Snake Eyes movie

film

Buy at Amazon

Subtitle details

Download
Thanks1 thanks received

Rate quality of subtitles

Rate QUALITY of subtitles with 1 point (bad)  Rate QUALITY of subtitles with 3 point (poor)  Rate QUALITY of subtitles with 5 point (okay)  Rate QUALITY of subtitles with 7 point (good)  Rate QUALITY of subtitles with 10 point (excellent)

Comment

Subtitle filenameSnake Eyes (1998) DVDRip.EN.HI.srt (146481bytes) show preview

Uploader commentFormat : AVI
Format/Info : Audio Video Interleave
File size : 699 MiB
Duration : 1h 38mn
Overall bit rate : 995 Kbps
Movie name : Snake Eyes - SBC
Subject : Snake Eyes - SBC
Writing application : Nandub v1.0rc2
Writing library : Nandub build 1853/release
Video
ID : 0
Format : MPEG-4 Visual
Codec ID : DIV3
Codec ID/Hint : DivX 3 Low
Duration : 1h 38mn
Bit rate : 870 Kbps
Width : 608 pixels
Height : 256 pixels
Display aspect ratio : 2.35:1
Frame rate : 23.976 fps
Color space : YUV
Chroma subsampling : 4:2:0
Bit depth : 8 bits
Bits/(Pixel*Frame) : 0.233
Stream size : 612 MiB (88%)
Audio
ID : 1
Format : MPEG Audio
Format version : Version 1
Format profile : Layer 3
Mode : Joint stereo
Mode extension : MS Stereo
Codec ID : 55
Codec ID/Hint : MP3
Duration : 1h 38mn
Bit rate mode : Constant
Bit rate : 112 Kbps
Channel(s) : 2 channels
Sampling rate : 44.1 KHz
Stream size : 78.8 MiB (11%)
Alignment : Aligned on interleaves
Interleave, duration : 26 ms (0.63 video frame)
Interleave, preload duration : 496 ms
Release nameSnake Eyes (1998) DVDRip23.976 FPS
Uploaderigor116 @ . downloaded572x () . Remove from favouritesAdd to favourites . Correct subtitlesCorrect subtitles

Uploaded from SubDownloader 1.2.9 developed by capiscuas

Comment

log-in to post comments.

Download Snake Eyes at 25 MBit
Once.Upon.a.Time.S06E09.HDTV.x264-FLEET[ (259 MB) Snowden.2016.HDRip.XviD-ETRG.avi (699 MB)
American.Dad.S13E04.720p.HDTV.x264-AVS[e (207 MB) humans.s02e05.hdtv.x264-tla[ettv].mkv (289 MB)
Snake Eyes subtitles English
Release name#CD UploadedDownloadedSubtitle ratingUploader
Snake.Eyes.1998.1080p.BluRay.H264.AAC-RARBGSubtitles for hearing impaired1CD128x 0.00
Snake.Eyes.1998.720p.BluRay.X264-Japhson [PublicHD]Subtitles for hearing impaired1CD2044x 10.00
Snake.Eyes.1998.720p.BluRay.X264-JaphsonSubtitles from trusted source1CD292x 0.00vtn54
Snake.Eyes.1998.720p.BluRay.x264.YIFY1CD3125x 0.00
Snake.Eyes.1998 HDTV.720p.H2641CD863x 0.00
Snake Eyes (1998) DVDRip1CD1419x 0.00igor116
Snake Eyes DVD Rip 25 FPS [ 1 CD ]Subtitles for hearing impaired1CD5184x 0.00mappi
Snake EyesSubtitles for hearing impaired1CD1133x 0.00KariKimber
Snake EyesSubtitles for hearing impaired1CD1274x 0.00likwid
Interesting links
All subtitles for this movie in this languageAll subtitles for this movie
All subtitles from this userRequest this subtitle for a different release
About movie:About movie @ http://www.imdb.comFind file:Snake Eyes downloadSnake Eyes SevenTorrentsDownload warez
Release:Release @ http://www.btarena.orgRelease @ http://nfo.raidrush.wsTrailers:Trailers @ http://www.imdb.com
Posters:Snake Eyes movie postersPosters @ http://www.imdb.comCovers:Covers @ http://www.allcdcovers.comCovers @ http://www.cdcovers.ccCovers @ http://www.cdcovers.to
Others:Your link here
Movie detailsMovie Rating:5.9 / 10 (64473)
[ Believe everything except your eyes. ] - All bets are off when corrupt homicide cop Rick Santoro witnesses a murder during a boxing match. It's up to him and lifelong friend and naval intelligence agent Kevin Dunne to uncover the conspiracy behind the killing. At every turn, Santoro makes increasingly shocking discoveries that even he can't turn a blind eye to.
Directed by:
Country:
Language:
Hide ads
download subtitle