Missing Privacy  Support us:
X
Advanced search
Watch movies with subtitles using Open Subtitles MKV Player. It is free and clean, works under Windows.
Hide ads

Nobody's Fool English subtitles (1994) 1CD srt

film

Buy at Amazon

Subtitle details

Download
Thanks8 thanks received

Rate quality of subtitles

Rate QUALITY of subtitles with 1 point (bad)  Rate QUALITY of subtitles with 3 point (poor)  Rate QUALITY of subtitles with 5 point (okay)  Rate QUALITY of subtitles with 7 point (good)  Rate QUALITY of subtitles with 10 point (excellent)

Comment

Subtitle filenameNobodys.Fool.1994.DVDrip.XviD-NoGrp.EN.srt (124022bytes) show preview

Uploader commentFormat : AVI
Format/Info : Audio Video Interleave
File size : 699 MiB
Duration : 1h 50mn
Overall bit rate : 888 Kbps
Writing application : FairUse Wizard - fairusewizard.com
Writing library : The best and REALLY easy backup tool
Video
ID : 0
Format : MPEG-4 Visual
Format profile : Advanced [email protected]
Format settings, BVOP : Yes
Format settings, QPel : No
Format settings, GMC : No warppoints
Format settings, Matrix : Default (H.263)
Muxing mode : Packed bitstream
Codec ID : XVID
Codec ID/Hint : XviD
Duration : 1h 50mn
Bit rate : 751 Kbps
Width : 544 pixels
Height : 304 pixels
Display aspect ratio : 16:9
Frame rate : 23.976 fps
Color space : YUV
Chroma subsampling : 4:2:0
Bit depth : 8 bits
Scan type : Progressive
Bits/(Pixel*Frame) : 0.189
Stream size : 591 MiB (85%)
Writing library : XviD 1.1.0 (UTC 2005-11-22)
Audio
ID : 1
Format : MPEG Audio
Format version : Version 1
Format profile : Layer 3
Mode : Joint stereo
Mode extension : MS Stereo
Codec ID : 55
Codec ID/Hint : MP3
Duration : 1h 50mn
Bit rate mode : Constant
Bit rate : 128 Kbps
Channel(s) : 2 channels
Sampling rate : 48.0 KHz
Stream size : 101 MiB (14%)
Alignment : Aligned on interleaves
Interleave, duration : 42 ms (1.00 video frame)
Interleave, preload duration : 504 ms
Writing library : LAME3.97b
Encoding settings : -m j -V 4 -q 2 -lowpass 17 -b 128
Release nameNobodys.Fool.1994.DVDrip.XviD-NoGrp23.976 FPS
Uploaderigor116 @ . downloaded1964x () . Remove from favouritesAdd to favourites . Correct subtitlesCorrect subtitles

Uploaded from FileBot-AppStore v4.6 developed by rednoah

Comment

log-in to post comments.

Nobody's Fool subtitles English
Release name#CD UploadedDownloadedSubtitle ratingUploader
Nobody's Fool 1994 720p WEB-DL DD5.1 H.264-alfaHD1CD358x 0.00
Nobody's Fool (1994) - NDRT2CD527x 6.00Telga (a)
Nobody's Fool (1994)2CD708x 0.00miskon (a)
Nobody's Fool (1994)1CD3457x 4.70miskon (a)
Interesting links
All subtitles for this movie in this languageAll subtitles for this movie
All subtitles from this userRequest this subtitle for a different release
About movie:About movie @ http://www.imdb.comFind file:Nobody's Fool downloadDownload warez
Release:Release @ http://www.btarena.orgRelease @ http://nfo.raidrush.wsTrailers:Trailers @ http://www.imdb.com
Posters:Nobody's Fool movie postersPosters @ http://www.imdb.comCovers:Covers @ http://www.allcdcovers.comCovers @ http://www.cdcovers.ccCovers @ http://www.cdcovers.to
Others:Your link here
Movie detailsMovie Rating:7.4 / 10 (15624)
[ In a town where nothing ever happens... everything is about to happen to Sully. ] - Sully is a rascally ne'er-do-well approaching retirement age. While he is pressing a worker's compensation suit for a bad knee, he secretly works for his nemesis, Carl, and flirts with Carl's young wife Toby. Sully's long- forgotten son and family have moved back to town, so Sully faces unfamiliar family responsibilities. Meanwhile, Sully's landlady's banker son plots to push through a new development and evict Sully from his mother's life.
Directed by:
Country:
Language:
Hide ads
download subtitle