Missing Privacy  Support us:
X
Advanced search
Watch movies with subtitles using Open Subtitles MKV Player. It is free and clean, works under Windows.

Hudson Hawk English subtitles (1991) 1CD srt

film

Buy at Amazon

Subtitle details

Download
Thanks

Rate quality of subtitles

Rate QUALITY of subtitles with 1 point (bad)  Rate QUALITY of subtitles with 3 point (poor)  Rate QUALITY of subtitles with 5 point (okay)  Rate QUALITY of subtitles with 7 point (good)  Rate QUALITY of subtitles with 10 point (excellent)

Comment

Stream this movie on alluc.com

Subtitle filenameHudson.Hawk.1991.iNTERNAL.DVDRip.XViD-EXiLE.EN.srt (85515bytes) show preview

Uploader commentFormat : AVI
Format/Info : Audio Video Interleave
File size : 697 MiB
Duration : 1h 39mn
Overall bit rate : 975 Kbps
Writing application : Nandub v1.0rc2
Writing library : Nandub build 1852/release
Video
ID : 0
Format : MPEG-4 Visual
Format settings, BVOP : No
Format settings, QPel : No
Format settings, GMC : No warppoints
Format settings, Matrix : Default (H.263)
Codec ID : XVID
Codec ID/Hint : XviD
Duration : 1h 39mn
Bit rate : 839 Kbps
Width : 592 pixels
Height : 320 pixels
Display aspect ratio : 1.850
Frame rate : 23.976 fps
Color space : YUV
Chroma subsampling : 4:2:0
Bit depth : 8 bits
Scan type : Progressive
Bits/(Pixel*Frame) : 0.185
Stream size : 600 MiB (86%)
Audio
ID : 1
Format : MPEG Audio
Format version : Version 1
Format profile : Layer 3
Mode : Joint stereo
Mode extension : MS Stereo
Codec ID : 55
Codec ID/Hint : MP3
Duration : 1h 39mn
Bit rate mode : Variable
Bit rate : 128 Kbps
Channel(s) : 2 channels
Sampling rate : 48.0 KHz
Stream size : 88.2 MiB (13%)
Alignment : Aligned on interleaves
Interleave, duration : 24 ms (0.58 video frame)
Interleave, preload duration : 395 ms
Writing library : LAME3.92
Encoding settings : -m j -V 4 -q 2 -lowpass 17.5 --abr 128
Release nameHudson.Hawk.1991.iNTERNAL.DVDRip.XViD-EXiLE23.976 FPS
Uploaderigor116 @ . downloaded2113x () . Remove from favouritesAdd to favourites . Correct subtitlesCorrect subtitles

Uploaded from BSPlayer v2.57 developed by bst2

Comment

log-in to post comments.

Hudson Hawk subtitles English
Release name#CD UploadedDownloadedSubtitle ratingUploader
Hudson Hawk (1991)Subtitles for hearing impaired1CD396x 0.00123456hydro
Hudson Hawk (1991).x264.720p-[1280, 720]@23.976fps.(AC3-2c... 1CD290x 10.00tfonias74
Hudson.Hawk.1991.720p.HDTV.AC3-x2641CD301x 0.00
Hudson.Hawk.1991.720p.BluRay.x264-PSYCHDSubtitles from trusted source1CD1023x 0.00vtn54
Hudson.Hawk.1991.720p.BluRay.x264-PSYCHDSubtitles for hearing impaired1CD1429x 10.00myback12000
Hudson.Hawk.1991.iNT.DVDRip.X264-EDRP2CD369x 0.00
Hudson Hawk (1991)Subtitles from trusted source1CD1991x 10.00eduo
Hudson Hawk1CD671x 0.00
Hudson Hawk (1991)1CD8672x 1.00ShooCat (a)
Hudson Hawk1CD852x 0.01tales
Interesting links
All subtitles for this movie in this languageAll subtitles for this movie
All subtitles from this userRequest this subtitle for a different release
About movie:About movie @ http://www.imdb.comFind file:Hudson Hawk downloadHudson Hawk SevenTorrentsDownload warez
Release:Release @ http://www.btarena.orgRelease @ http://nfo.raidrush.wsTrailers:Trailers @ http://www.imdb.com
Posters:Hudson Hawk movie postersPosters @ http://www.imdb.comCovers:Covers @ http://www.allcdcovers.comCovers @ http://www.cdcovers.ccCovers @ http://www.cdcovers.to
Others:Your link here
Movie detailsAKA:The Adventures of Hudson Hawk (eng)
Movie Rating:5.7 / 10 (44731)
[ Danger is his middle name. ] - Eddie Hawkins, called Hudson Hawk has just been released from ten years of prison and is planning to spend the rest of his life honestly. But then the crazy Mayflower couple blackmail him to steal some of the works of Leonardo da Vinci. If he refuses, they threaten to kill his friend Tommy.
Directed by:
Country:
Hide ads
download subtitle