Ad blocking detected, consider supporting www.OpenSubtitles.org in an other way
X
Advanced search
Watch movies with subtitles using Open Subtitles MKV Player. It is free and clean, works under Windows.
Most of icons are active, hold on mouse over them to know its meaning
Hide ads

Subtitles for hearing impaired

Tremors 4: The Legend Begins English subtitles (2004) 1CD srt

Download: Tremors 4: The Legend Begins movie

film

Buy at Amazon

Subtitle details

Download
Thanks1 thanks received

Rate quality of subtitles

Rate QUALITY of subtitles with 1 point (bad)  Rate QUALITY of subtitles with 3 point (poor)  Rate QUALITY of subtitles with 5 point (okay)  Rate QUALITY of subtitles with 7 point (good)  Rate QUALITY of subtitles with 10 point (excellent)

Comment

Stream this movie on alluc.com

Subtitle filenameTremors.4.2004.WS.iNTERNAL.DVDRip.XviD-OSiRiS.EN.HI.srt (71284bytes) show preview

Uploader commentFormat : AVI
Format/Info : Audio Video Interleave
File size : 700 MiB
Duration : 1h 36mn
Overall bit rate : 1 010 Kbps
Writing application : VirtualDubMod 1.5.10.2 (build 2540/release)
Writing library : VirtualDubMod build 2540/release
Video
ID : 0
Format : MPEG-4 Visual
Format profile : Advanced [email protected]
Format settings, BVOP : Yes
Format settings, QPel : No
Format settings, GMC : No warppoints
Format settings, Matrix : Default (H.263)
Codec ID : XVID
Codec ID/Hint : XviD
Duration : 1h 36mn
Bit rate : 866 Kbps
Width : 624 pixels
Height : 352 pixels
Display aspect ratio : 16:9
Frame rate : 25.000 fps
Color space : YUV
Chroma subsampling : 4:2:0
Bit depth : 8 bits
Scan type : Progressive
Bits/(Pixel*Frame) : 0.158
Stream size : 600 MiB (86%)
Writing library : XviD 1.0.3 (UTC 2004-12-20)
Audio
ID : 1
Format : MPEG Audio
Format version : Version 1
Format profile : Layer 3
Mode : Joint stereo
Codec ID : 55
Codec ID/Hint : MP3
Duration : 1h 36mn
Bit rate mode : Variable
Bit rate : 128 Kbps
Channel(s) : 2 channels
Sampling rate : 48.0 KHz
Stream size : 90.9 MiB (13%)
Alignment : Aligned on interleaves
Interleave, duration : 24 ms (0.60 video frame)
Interleave, preload duration : 140 ms
Writing library : LAME3.90.
Encoding settings : -m j -V 4 -q 2 -lowpass 17.6 --abr 128
Release nameTremors.4.2004.WS.iNTERNAL.DVDRip.XviD-OSiRiS25.000 FPS
Uploaderigor116 @ . downloaded381x () . Remove from favouritesAdd to favourites . Correct subtitlesCorrect subtitles

Uploaded from SubDownloader 1.2.9 developed by capiscuas

Comment

log-in to post comments.

Download Tremors 4: The Legend Begins at 25 MBit
2.broke.girls.620.hdtv-lol[ettv].mkv (157 MB) The.Walking.Dead.S07E14.1080p.WEB-DL.DD5 (1952 MB)
Legion.S01E07.WEB-DL.XviD-FUM[ettv].avi (397 MB) Kong Skull Island 2017 HDCAM x264 HQMic (1766 MB)
Tremors 4: The Legend Begins subtitles English
Release name#CD UploadedDownloadedSubtitle ratingUploader
Tremors 4 The Legend Begins 2004 1080p [H246-mp4]1CD1061x 0.00
Tremors.4.The.Legend.Begins.2004.720p.BluRay.x264.VPPVSubtitles for hearing impaired1CD444x 0.00
Tremors 4 The Legend Begins - Eng 720p [H264-mp4]1CD1754x 0.00
Tremors 4 The Legend Begins (2004)1CD386x 0.00TommyWelle
Tremors 4 The Legend Begins 20041CD364x 0.00
Tremors.4.2004.WS.iNTERNAL.DVDRip.XviD-OSiRiS1CD2444x 0.00igor116
Tremors 4 - The Legend BeginsSubtitles from trusted source1CD6559x 9.00eduo
Tremors_4.English1CD1081x 0.00jenspens
Interesting links
All subtitles for this movie in this languageAll subtitles for this movie
All subtitles from this userRequest this subtitle for a different release
About movie:About movie @ http://www.imdb.comFind file:Tremors 4: The Legend Begins downloadDownload warez
Release:Release @ http://www.btarena.orgRelease @ http://nfo.raidrush.wsOfficial site:Stampede Entertainment | The Legend Begins
Trailers:Trailers @ http://www.imdb.comPosters:Tremors 4: The Legend Begins movie postersPosters @ http://www.imdb.com
Covers:Covers @ http://www.allcdcovers.comCovers @ http://www.cdcovers.ccCovers @ http://www.cdcovers.to
Subtitles:Subtitles @ https://hitsubtitles.comEnglish Subtitles Tremors 4: The Legend BeginsOthers:Your link here
Movie detailsAKA:Tremors 4 (eng), Tremors: Original Showdown (eng)
Movie Rating:5.4 / 10 (8566)
[ A Revolution Has Begun... ] - This prequel of the bone-chilling Tremors begins in the town of Rejection, Nev., in 1889, where 17 men die under mysterious circumstances. Spooked by recent events, the miners who populate the town leave in droves until there's nothing left but a shell of a community. It's up to the remaining residents to get to the bottom of the deaths -- but they must do so before they, too, are eradicated off the face of the planet.
Directed by:
Country:
Language:
Hide ads
download subtitle