Missing Privacy  Support us:
X
Advanced search
Hide ads

Subtitles for hearing impaired

Tremors 3: Back to Perfection English subtitles (2001) 1CD srt

film

Buy at Amazon

Subtitle details

Download
Thanks2 thanks received

Rate quality of subtitles

Rate QUALITY of subtitles with 1 point (bad)  Rate QUALITY of subtitles with 3 point (poor)  Rate QUALITY of subtitles with 5 point (okay)  Rate QUALITY of subtitles with 7 point (good)  Rate QUALITY of subtitles with 10 point (excellent)

Comment

Stream this movie on alluc.com

Subtitle filenameTremors.3.Back.To.Perfection.2001.WS.iNTERNAL.DVDRip.XviD-OSiRiS.EN.HI.srt (93084bytes) show preview

Uploader commentFormat : AVI
Format/Info : Audio Video Interleave
File size : 700 MiB
Duration : 1h 39mn
Overall bit rate : 985 Kbps
Writing application : VirtualDubMod 1.5.10.2 (build 2540/release)
Writing library : VirtualDubMod build 2540/release
Video
ID : 0
Format : MPEG-4 Visual
Format profile : Advanced Simple@L5
Format settings, BVOP : Yes
Format settings, QPel : No
Format settings, GMC : No warppoints
Format settings, Matrix : Default (H.263)
Codec ID : XVID
Codec ID/Hint : XviD
Duration : 1h 39mn
Bit rate : 839 Kbps
Width : 592 pixels
Height : 320 pixels
Display aspect ratio : 1.850
Frame rate : 25.000 fps
Color space : YUV
Chroma subsampling : 4:2:0
Bit depth : 8 bits
Scan type : Progressive
Bits/(Pixel*Frame) : 0.177
Stream size : 596 MiB (85%)
Writing library : XviD 1.0.3 (UTC 2004-12-20)
Audio
ID : 1
Format : MPEG Audio
Format version : Version 1
Format profile : Layer 3
Mode : Joint stereo
Mode extension : MS Stereo
Codec ID : 55
Codec ID/Hint : MP3
Duration : 1h 39mn
Bit rate mode : Variable
Bit rate : 128 Kbps
Channel(s) : 2 channels
Sampling rate : 48.0 KHz
Stream size : 94.4 MiB (13%)
Alignment : Aligned on interleaves
Interleave, duration : 24 ms (0.60 video frame)
Interleave, preload duration : 138 ms
Writing library : LAME3.90.
Encoding settings : -m j -V 4 -q 2 -lowpass 17.6 --abr 128
Release nameTremors.3.Back.To.Perfection.2001.WS.iNTERNAL.DVDRip.XviD-OSiRiS25.000 FPS
Uploaderigor116 @ . downloaded1627x () . Remove from favouritesAdd to favourites . Correct subtitlesCorrect subtitles

Uploaded from SubDownloader 1.2.9 developed by capiscuas

Comment

log-in to post comments.

Tremors 3: Back to Perfection subtitles English
Release name#CD UploadedDownloadedSubtitle ratingUploader
Tremors 3 Back to PerfectionSubtitles for hearing impaired1CD245x 0.00
Tremors.3.Back.to.Perfection.2001.720p.BluRay.x264-HDBSubtitles for hearing impaired1CD1441x 0.00
Tremors 3: Back to PerfectionSubtitles for hearing impaired1CD461x 0.00aasswwiinn
Tremors 3 - Back to PerfectionSubtitles from trusted sourceSubtitles for hearing impaired1CD2487x 0.00eduo
Tremors 3 - Back to Perfection (2001)Subtitles for hearing impaired1CD6738x 0.00-saregama- (a)
Tremors 3: Back to Perfection (2001) (V)Subtitles for hearing impaired1CD1225x 0.00lclclc (a)
Interesting links
All subtitles for this movie in this languageAll subtitles for this movie
All subtitles from this userRequest this subtitle for a different release
About movie:About movie @ http://www.imdb.comFind file:Download Tremors 3: Back to PerfectionTremors 3: Back to Perfection watch online for freeTremors 3: Back to Perfection downloadDownload warez
Release:Release @ http://www.btarena.orgRelease @ http://nfo.raidrush.wsOfficial site:Stampede Entertainment | Stampede Entertainment
Trailers:Trailers @ http://www.imdb.comPosters:Tremors 3: Back to Perfection movie postersPosters @ http://www.imdb.com
Covers:Covers @ https://www.allcdcovers.comCovers @ http://www.cdcovers.ccCovers @ http://www.cdcovers.to
Movie detailsAKA:Tremors 3: Back to Perfection (eng), Тремтiння землi 3: Повернення в Перфекшн (eng)
Movie Rating:5.4 / 10 (12932)
[ The Food Chain Just Grew Another Link. ] - Burt Gummer returns home to Perfection, Nev., to find that the town of terror has become a theme park, and when the simulated giant worm attacks turn real, the survivalist must battle the creatures once again. Gummer pits his impressive knowledge of weaponry against the newest and deadliest generation of flesh-eating graboids, with help from two young entrepreneurs.
Directed by:
Country:
Language:
Hide ads
download subtitle