Missing Privacy  Support us:
X
Advanced search
Watch movies with subtitles using Open Subtitles MKV Player. It is free and clean, works under Windows.
We recommend you to visit links in section interesting links
Hide ads

Tremors II: Aftershocks English subtitles (1996) 1CD srt

Download: Tremors II: Aftershocks movie

film

Buy at Amazon

Subtitle details

Download
Thanks

Rate quality of subtitles

Rate QUALITY of subtitles with 1 point (bad)  Rate QUALITY of subtitles with 3 point (poor)  Rate QUALITY of subtitles with 5 point (okay)  Rate QUALITY of subtitles with 7 point (good)  Rate QUALITY of subtitles with 10 point (excellent)

Comment

Subtitle filenameTremors.2.Aftershocks.1996.WS.iNTERNAL.DVDRip.XviD-OSiRiS.EN.srt (73428bytes) show preview

Uploader commentFormat : AVI
Format/Info : Audio Video Interleave
File size : 700 MiB
Duration : 1h 35mn
Overall bit rate : 1 026 Kbps
Writing application : VirtualDubMod 1.5.10.2 (build 2540/release)
Writing library : VirtualDubMod build 2540/release
Video
ID : 0
Format : MPEG-4 Visual
Format profile : Advanced [email protected]
Format settings, BVOP : Yes
Format settings, QPel : No
Format settings, GMC : No warppoints
Format settings, Matrix : Default (H.263)
Codec ID : XVID
Codec ID/Hint : XviD
Duration : 1h 35mn
Bit rate : 883 Kbps
Width : 592 pixels
Height : 320 pixels
Display aspect ratio : 1.850
Frame rate : 25.000 fps
Color space : YUV
Chroma subsampling : 4:2:0
Bit depth : 8 bits
Scan type : Progressive
Bits/(Pixel*Frame) : 0.186
Stream size : 602 MiB (86%)
Writing library : XviD 1.0.3 (UTC 2004-12-20)
Audio
ID : 1
Format : MPEG Audio
Format version : Version 1
Format profile : Layer 3
Mode : Joint stereo
Mode extension : MS Stereo
Codec ID : 55
Codec ID/Hint : MP3
Duration : 1h 35mn
Bit rate mode : Variable
Bit rate : 128 Kbps
Channel(s) : 2 channels
Sampling rate : 48.0 KHz
Stream size : 88.7 MiB (13%)
Alignment : Aligned on interleaves
Interleave, duration : 24 ms (0.60 video frame)
Interleave, preload duration : 141 ms
Writing library : LAME3.90.
Encoding settings : -m j -V 4 -q 2 -lowpass 17.6 --abr 128
Release nameTremors.2.Aftershocks.1996.WS.iNTERNAL.DVDRip.XviD-OSiRiS25.000 FPS
Uploaderigor116 @ . downloaded733x () . Remove from favouritesAdd to favourites . Correct subtitlesCorrect subtitles

Uploaded from SubDownloader 1.2.9 developed by capiscuas

Comment

log-in to post comments.

Download Tremors II: Aftershocks at 25 MBit
Colony.S02E05.HDTV.x264-SVA[eztv].mkv (241 MB) Legion.S01E02.1080p.WEB-DL.DD5.1.H264-RA (1972 MB)
Doctor.Strange.2016.1080p.Blu-ray.REMUX. (26882 MB) Doctor.Strange.2016.SLOSubs.720p.BRRip.X (2770 MB)
Tremors II: Aftershocks subtitles English
Release name#CD UploadedDownloadedSubtitle ratingUploader
Tremors.II.Aftershocks.1996.720p.BluRay.x264.VPPV1CD564x 0.00
Tremors II Aftershocks (1996)1CD502x 0.00TommyWelle
Tremors 2 - AftershocksSubtitles for hearing impaired1CD198x 0.00aasswwiinn
Tremors 2 Aftershocks 1996.KINGSNAKE691CD400x 0.00
Tremors.2.1996.720p.Bluray.x264-DeBTViD1CD825x 0.00
Tremors.2.1996.720p.Bluray.x264-DeBTViDSubtitles for hearing impaired1CD393x 0.00
Tremors II Aftershocks 1996 BRRip XViD AC3-PLAYNOW1CD518x 0.00
Tremors II Aftershocks (Video 1996)1CD203x 0.00
Tremors 2 Aftershocks 1996 Fred Ward, Michael Gross (675MB)1CD5772x 0.00AMTG
Tremors 2 - Aftershocks1CD927x 0.00The_RedBurn
Interesting links
All subtitles for this movie in this languageAll subtitles for this movie
All subtitles from this userRequest this subtitle for a different release
About movie:About movie @ http://www.imdb.comFind file:Tremors II: Aftershocks downloadDownload warez
Release:Release @ http://www.btarena.orgRelease @ http://nfo.raidrush.wsOfficial site:The Official Tremors 2: Aftershocks Fan Page
Trailers:Trailers @ http://www.imdb.comPosters:Tremors II: Aftershocks movie postersPosters @ http://www.imdb.com
Covers:Covers @ http://www.allcdcovers.comCovers @ http://www.cdcovers.ccCovers @ http://www.cdcovers.to
Subtitles:Subtitles @ https://hitsubtitles.comEnglish Subtitles Tremors II: AftershocksOthers:Your link here
Movie detailsAKA:Tremors 2: Aftershocks (eng), Tremors II: Aftershocks (eng), Тремтiння землi 2: Повторний удар (eng)
Movie Rating:5.9 / 10 (19713)
[ The Worms have turned. ] - Those supersucking desert creatures are back --- and this time they're south of the border. As the creatures worm their way through the oil fields of Mexico, the only people who can wrangle them are veteran Earl Bassett and survivalist Burt Gummer. Add to that team a young punk out for cash and a fearless scientist, and the critters don't stand a chance.
Directed by:
Country:
Hide ads
download subtitle