Missing Privacy  Support us:
X
Advanced search
Hide ads

Subtitles for hearing impaired

Tremors English subtitles (1990) 1CD srt

film

Buy at Amazon

Subtitle details

Download
Thanks

Rate quality of subtitles

Rate QUALITY of subtitles with 1 point (bad)  Rate QUALITY of subtitles with 3 point (poor)  Rate QUALITY of subtitles with 5 point (okay)  Rate QUALITY of subtitles with 7 point (good)  Rate QUALITY of subtitles with 10 point (excellent)

Comment

Add subtitles to your movies with Freemake Video Converter

Subtitle filenameTremors.1990.WS.iNTERNAL.DVDRip.XviD-OSiRiS.EN.HI.srt (86011bytes) show preview

Uploader commentFormat : AVI
Format/Info : Audio Video Interleave
File size : 700 MiB
Duration : 1h 31mn
Overall bit rate : 1 067 Kbps
Writing application : VirtualDubMod 1.5.10.2 (build 2540/release)
Writing library : VirtualDubMod build 2540/release
Video
ID : 0
Format : MPEG-4 Visual
Format profile : Advanced Simple@L5
Format settings, BVOP : Yes
Format settings, QPel : No
Format settings, GMC : No warppoints
Format settings, Matrix : Default (H.263)
Codec ID : XVID
Codec ID/Hint : XviD
Duration : 1h 31mn
Bit rate : 927 Kbps
Width : 592 pixels
Height : 320 pixels
Display aspect ratio : 1.850
Frame rate : 25.000 fps
Color space : YUV
Chroma subsampling : 4:2:0
Bit depth : 8 bits
Scan type : Progressive
Bits/(Pixel*Frame) : 0.196
Stream size : 608 MiB (87%)
Writing library : XviD 1.0.3 (UTC 2004-12-20)
Audio
ID : 1
Format : MPEG Audio
Format version : Version 1
Format profile : Layer 3
Mode : Joint stereo
Codec ID : 55
Codec ID/Hint : MP3
Duration : 1h 31mn
Bit rate mode : Variable
Bit rate : 128 Kbps
Channel(s) : 2 channels
Sampling rate : 48.0 KHz
Stream size : 83.2 MiB (12%)
Alignment : Aligned on interleaves
Interleave, duration : 24 ms (0.60 video frame)
Interleave, preload duration : 145 ms
Writing library : LAME3.90.
Encoding settings : -m j -V 4 -q 2 -lowpass 17.6 --abr 128
Release nameTremors.1990.WS.iNTERNAL.DVDRip.XviD-OSiRiS25.000 FPS
Uploaderigor116 @ . downloaded620x () . Remove from favouritesAdd to favourites . Correct subtitlesCorrect subtitles

Uploaded from SubDownloader 1.2.9 developed by capiscuas

Comment

log-in to post comments.

Tremors subtitles English
Release name#CD UploadedDownloadedSubtitle ratingUploader
Tremors 1-4 (1990-2015) 1080pSubtitles for hearing impaired4CD1688x 0.00
Tremors (1990)1CD358x 0.00TommyWelle
Tremors 1990.KINGSNAKE691CD288x 0.00
Tremors 1990 720p Bluray x264-M@Subtitles for hearing impaired1CD10139x 0.00Mathandler
Tremors.1990.x264.DTS-WAF1CD5744x 0.00
HD-DVD.1080p.DTS.VC-1.remux.dxva-drealiTSubtitles from trusted source1CD1280x 0.00ShooCat
TremorsSubtitles from trusted source1CD25485x 10.00eduo
The Tremors1CD3903x 0.00
Tremors.1990.NORDiC.iNTERNAL.DVDRip.XVID-W4A1CD4929x 0.00Svampen1 (a)
Tremors.1989.INTERNAL.DVDRip.XviD-aAF1CD245x 0.00ShooCat (a)
Interesting links
All subtitles for this movie in this languageAll subtitles for this movie
All subtitles from this userRequest this subtitle for a different release
About movie:About movie @ http://www.imdb.comFind file:Download TremorsTremors watch online for freeTremors downloadDownload warez
Release:Release @ http://www.btarena.orgRelease @ http://nfo.raidrush.wsOfficial site:Fan site | German Tremors poster
Trailers:Trailers @ http://www.imdb.comPosters:Tremors movie postersPosters @ http://www.imdb.com
Covers:Covers @ https://www.allcdcovers.comCovers @ http://www.cdcovers.ccCovers @ http://www.cdcovers.to
Movie detailsAKA:Beneath Perfection (eng), Dead Silence (eng), Land Sharks (eng), Tremors (eng), Тремтiння землi (eng)
Movie Rating:7.1 / 10 (98677)
[ The monster movie that breaks new ground. ] - Hick handymen Val McKee and Earl Bassett can barely eke out a living in the Nevada hamlet of Perfection, so they decide to leave town -- despite an admonition from a shapely seismology coed who's picking up odd readings on her equipment. Before long, Val and Earl discover what's responsible for those readings: 30-foot-long carnivorous worms with a proclivity for sucking their prey underground.
Directed by:
Country:
Language:
Hide ads
download subtitle