Missing Privacy  Support us:
X
Advanced search
Watch movies with subtitles using Open Subtitles MKV Player. It is free and clean, works under Windows.

The Texas Chainsaw Massacre Bosnian subtitles (2003) 1CD srt

film

Buy at Amazon

Subtitle details

Download
Thanks

Rate quality of subtitles

Rate QUALITY of subtitles with 1 point (bad)  Rate QUALITY of subtitles with 3 point (poor)  Rate QUALITY of subtitles with 5 point (okay)  Rate QUALITY of subtitles with 7 point (good)  Rate QUALITY of subtitles with 10 point (excellent)

Comment

Stream this movie on alluc.com

Subtitle filenameThe Texas Chainsaw Massacre.BS.srt (48949bytes) show preview

Uploader commentFormat : AVI
Format/Info : Audio Video Interleave
File size : 696 MiB
Duration : 1h 38mn
Overall bit rate : 990 Kbps
Writing application : Nandub v1.0rc2
Writing library : Nandub build 1852/release
Video
ID : 0
Format : MPEG-4 Visual
Format profile : [email protected]
Format settings, BVOP : No
Format settings, QPel : No
Format settings, GMC : No warppoints
Format settings, Matrix : Default (H.263)
Codec ID : XVID
Codec ID/Hint : XviD
Duration : 1h 38mn
Bit rate : 846 Kbps
Width : 576 pixels
Height : 304 pixels
Display aspect ratio : 1.895
Frame rate : 23.976 fps
Color space : YUV
Chroma subsampling : 4:2:0
Bit depth : 8 bits
Scan type : Progressive
Bits/(Pixel*Frame) : 0.202
Stream size : 595 MiB (85%)
Writing library : XviD 0.0.12 (UTC 2003-06-11)
Audio
ID : 1
Format : MPEG Audio
Format version : Version 1
Format profile : Layer 3
Mode : Joint stereo
Mode extension : MS Stereo
Codec ID : 55
Codec ID/Hint : MP3
Duration : 1h 38mn
Bit rate mode : Variable
Bit rate : 131 Kbps
Minimum bit rate : 80.0 Kbps
Channel(s) : 2 channels
Sampling rate : 48.0 KHz
Stream size : 92.1 MiB (13%)
Alignment : Aligned on interleaves
Interleave, duration : 24 ms (0.58 video frame)
Interleave, preload duration : 134 ms
Writing library : LAME3.90.
Encoding settings : -m j -V 4 -q 2 -lowpass 18.7 --vbr-new -b 80
Release nameThe Texas Chainsaw Massacre.avi23.976 FPS
Uploaderigor116 @ . downloaded2608x () . Remove from favouritesAdd to favourites . Correct subtitlesCorrect subtitles

Uploaded from BSPlayer v2.67 developed by bst2

Comment

log-in to post comments.

The Texas Chainsaw Massacre subtitles Bosnian
Release name#CD UploadedDownloadedSubtitle ratingUploader
The Texas Chainsaw Massacre(2003)(DvdRip.Xvid)-BRIDOG--srp... 1CD84x 0.00
The Texas Chainsaw Massacre1CD221x 0.00banoviciminer
Interesting links
All subtitles for this movie in this languageAll subtitles for this movie
All subtitles from this userRequest this subtitle for a different release
About movie:About movie @ http://www.imdb.comFind file:The Texas Chainsaw Massacre downloadThe Texas Chainsaw Massacre SevenTorrentsDownload warez
Release:Release @ http://www.btarena.orgRelease @ http://nfo.raidrush.wsOfficial site:New Line Cinema [us]
Trailers:Trailers @ http://www.imdb.comPosters:The Texas Chainsaw Massacre movie postersPosters @ http://www.imdb.com
Covers:Covers @ http://www.allcdcovers.comCovers @ http://www.cdcovers.ccCovers @ http://www.cdcovers.to
Subtitles:Subtitles @ https://hitsubtitles.comEnglish Subtitles The Texas Chainsaw MassacreOthers:Your link here
Movie detailsAKA:The Texas Chainsaw Massacre (eng)
Movie Rating:6.2 / 10 (112412)
[ What you know about fear... doesn't even come close. ] - After picking up a traumatized young hitchhiker, five friends find themselves stalked and hunted by a deformed chainsaw-wielding killer and his family of equally psychopathic killers.
Directed by:
Writer credits:
Country:
Language:
Hide ads
download subtitle