Ad blocking detected, consider supporting www.OpenSubtitles.org in an other way
X
Advanced search
Hide ads

The Texas Chain Saw Massacre Bosnian subtitles (1974) 1CD srt

film

Buy at Amazon

Subtitle details

Download
Thanks

Rate quality of subtitles

Rate QUALITY of subtitles with 1 point (bad)  Rate QUALITY of subtitles with 3 point (poor)  Rate QUALITY of subtitles with 5 point (okay)  Rate QUALITY of subtitles with 7 point (good)  Rate QUALITY of subtitles with 10 point (excellent)

Comment

Stream this movie on alluc.com

Subtitle filenameThe Texas ChainSaw Massacre (1974) [DVDRip][KooKoo].BS.srt (36479bytes) show preview

Uploader commentFormat : AVI
Format/Info : Audio Video Interleave
File size : 799 MiB
Duration : 1h 23mn
Overall bit rate : 1 334 Kbps
Movie name : The Texas ChainSaw Massacre (1974) [DVDRip][KooKoo]
Genre : Horror
Recorded date : 07/02/2008
Copyright : Ripped By KooKoo
Comment : Subtitles NOT included.
IMIU : www.imdb.com/title/tt0072271/
Video
ID : 0
Format : MPEG-4 Visual
Format profile : Advanced Simple@L5
Format settings, BVOP : Yes
Format settings, QPel : No
Format settings, GMC : No warppoints
Format settings, Matrix : Default (MPEG)
Muxing mode : Packed bitstream
Codec ID : XVID
Codec ID/Hint : XviD
Duration : 1h 23mn
Bit rate : 1 197 Kbps
Width : 608 pixels
Height : 336 pixels
Display aspect ratio : 16:9
Frame rate : 23.976 fps
Color space : YUV
Chroma subsampling : 4:2:0
Bit depth : 8 bits
Scan type : Progressive
Bits/(Pixel*Frame) : 0.244
Stream size : 717 MiB (90%)
Writing library : XviD 1.2.0.dev47 (UTC 2006-11-01)
Audio
ID : 1
Format : MPEG Audio
Format version : Version 1
Format profile : Layer 3
Mode : Joint stereo
Mode extension : MS Stereo
Codec ID : 55
Codec ID/Hint : MP3
Duration : 1h 23mn
Bit rate mode : Constant
Bit rate : 128 Kbps
Channel(s) : 2 channels
Sampling rate : 48.0 KHz
Stream size : 76.7 MiB (10%)
Alignment : Aligned on interleaves
Interleave, duration : 42 ms (1.00 video frame)
Interleave, preload duration : 504 ms
Writing library : LAME3.97
Encoding settings : -m j -V 4 -q 2 -lowpass 17 -b 128
Language : English
Release nameThe Texas ChainSaw Massacre (1974) [DVDRip][KooKoo]23.976 FPS
Uploaderigor116 @ . downloaded1357x () . Remove from favouritesAdd to favourites . Correct subtitlesCorrect subtitles

Uploaded from SubDownloader 1.2.9 developed by capiscuas

Comment

log-in to post comments.

The Texas Chain Saw Massacre subtitles Bosnian
Release name#CD UploadedDownloadedSubtitle ratingUploader
The Texas Chainsaw Massacre-hrv(1)1CD95x 0.00
Interesting links
All subtitles for this movie in this languageAll subtitles for this movie
All subtitles from this userRequest this subtitle for a different release
About movie:About movie @ http://www.imdb.comFind file:Download The Texas Chain Saw MassacreThe Texas Chain Saw Massacre watch online for freeThe Texas Chain Saw Massacre downloadDownload warez
Release:Release @ http://www.btarena.orgRelease @ http://nfo.raidrush.wsOfficial site:Official site [us]
Trailers:Trailers @ http://www.imdb.comPosters:The Texas Chain Saw Massacre movie postersPosters @ http://www.imdb.com
Covers:Covers @ https://www.allcdcovers.comCovers @ http://www.cdcovers.ccCovers @ http://www.cdcovers.to
Movie detailsAKA:Headcheese (eng), Le massacre à la scie (eng), Leatherface (eng), Stalking Leatherface (eng), The Texas Chain Saw Massacre (eng), The Texas Chainsaw Massacre (eng), Техаська рiзанина бензопилою (eng)
Movie Rating:7.5 / 10 (107094)
[ Who will survive and what will be left of them? ] - Five friends visiting their grandfather's house in the country are hunted and terrorized by a chain-saw wielding killer and his family of grave-robbing cannibals.
Directed by:
Writer credits:
Country:
Language:
Hide ads
download subtitle