Missing Privacy  Support us:
X
Advanced search
Watch movies with subtitles using Open Subtitles MKV Player. It is free and clean, works under Windows.

Subtitles for high-definition movie

The Tourist Bosnian subtitles (2010) 1CD srt

film

Buy at Amazon

Subtitle details

Download
Thanks

Rate quality of subtitles

Rate QUALITY of subtitles with 1 point (bad)  Rate QUALITY of subtitles with 3 point (poor)  Rate QUALITY of subtitles with 5 point (okay)  Rate QUALITY of subtitles with 7 point (good)  Rate QUALITY of subtitles with 10 point (excellent)

Comment

Subtitle filenameThe.Tourist.2010.BRRip.XviD.AC3-SANTi.BS.srt (52942bytes) show preview

Uploader commentFormat : AVI
Format/Info : Audio Video Interleave
File size : 1.44 GiB
Duration : 1h 43mn
Overall bit rate : 1 991 Kbps
Writing application : VirtualDubMod 1.5.10.2 (build 2542/release)
Writing library : VirtualDubMod build 2542/release
Video
ID : 0
Format : MPEG-4 Visual
Format profile : Advanced [email protected]
Format settings, BVOP : Yes
Format settings, QPel : No
Format settings, GMC : No warppoints
Format settings, Matrix : Default (MPEG)
Codec ID : XVID
Codec ID/Hint : XviD
Duration : 1h 43mn
Bit rate : 1 534 Kbps
Width : 720 pixels
Height : 304 pixels
Display aspect ratio : 2.35:1
Frame rate : 23.976 fps
Color space : YUV
Chroma subsampling : 4:2:0
Bit depth : 8 bits
Scan type : Progressive
Bits/(Pixel*Frame) : 0.292
Stream size : 1.11 GiB (77%)
Writing library : XviD 1.1.2 (UTC 2006-11-01)
Audio
ID : 1
Format : AC-3
Format/Info : Audio Coding 3
Mode extension : CM (complete main)
Codec ID : 2000
Duration : 1h 43mn
Bit rate mode : Constant
Bit rate : 448 Kbps
Channel(s) : 6 channels
Channel positions : Front: L C R, Side: L R, LFE
Sampling rate : 48.0 KHz
Bit depth : 16 bits
Stream size : 332 MiB (23%)
Alignment : Split accross interleaves
Interleave, duration : 42 ms (1.00 video frame)
Interleave, preload duration : 500 ms
Release nameThe.Tourist.2010.BRRip.XviD.AC3-SANTi23.976 FPS
Uploaderigor116 @ . downloaded138x () . Remove from favouritesAdd to favourites . Correct subtitlesCorrect subtitles

Uploaded from SubDownloader 1.2.9 developed by capiscuas

Comment

log-in to post comments.

The Tourist subtitles Bosnian
Release name#CD UploadedDownloadedSubtitle ratingUploader
R5.LINE.Xvid.1337x-Noir1CD7693x 0.00titlovic
The.Tourist1CD71x 0.00
The Tourist[2010]DvDrip[Eng]-FXG1CD931x 0.00
The Tourist1CD831x 0.00
Interesting links
All subtitles for this movie in this languageAll subtitles for this movie
All subtitles from this userRequest this subtitle for a different release
About movie:About movie @ http://www.imdb.comFind file:The Tourist downloadThe Tourist SevenTorrentsDownload warez
Release:Release @ http://www.btarena.orgRelease @ http://nfo.raidrush.wsOfficial site:Official site [fr] | Sony Pictures [jp] | Sony Pictures [us]
Trailers:Trailers @ http://www.imdb.comPosters:The Tourist movie postersPosters @ http://www.imdb.com
Covers:Covers @ http://www.allcdcovers.comCovers @ http://www.cdcovers.ccCovers @ http://www.cdcovers.to
Subtitles:Subtitles @ http://subtitles.movieEnglish Subtitles The TouristOthers:Your link here
Movie detailsAKA:The Tourist (eng), The.Tourist.2010 (eng), Турист (eng)
Movie Rating:6.0 / 10 (187448)
[ It all started when he met a woman ] - American tourist Frank (Johnny Depp) meets mysterious British woman Elsie (Angelina Jolie) on the train to Venice. Romance seems to bud, but there's more to her than meets the eye. Remake of the 2005 French film "Anthony Zimmer", written and directed by Jérôme Salle.
download subtitle