Ad blocking detected, consider supporting www.OpenSubtitles.org in an other way
X
Advanced search
Watch movies with subtitles using Open Subtitles MKV Player. It is free and clean, works under Windows.

Subtitles for high-definition movie

Linkin Park: video lyrics English subtitles (2012) 1CD srt

film

Buy at Amazon

Subtitle details

Download
Thanks5 thanks received

Rate quality of subtitles

Rate QUALITY of subtitles with 1 point (bad)  Rate QUALITY of subtitles with 3 point (poor)  Rate QUALITY of subtitles with 5 point (okay)  Rate QUALITY of subtitles with 7 point (good)  Rate QUALITY of subtitles with 10 point (excellent)

Comment

Add subtitles to your movies with Freemake Video Converter

Subtitle filenameLinkin Park - New Divide [1280-720].srt (3666bytes) show preview

Uploader commentThis subtitle is for Linkin Park - New Divide HD video available on torrentz.com
Song : New Divide
Album : Transformers Revenge Of The Fallen [Sound-Track]
Artist : Linkin Park
Year : 2009
General
Complete name : F:\English Vids\Linkin Park\Linkin Park - New Divide [HD]\Linkin Park - New Divide [1280-720].mp4
Format : MPEG-4
Format profile : Base Media / Version 2
Codec ID : mp42
File size : 67.5 MiB
Duration : 4mn 26s
Overall bit rate : 2 124 Kbps
Movie name : New Divide
Performer : Linkin Park
Encoded date : 2009
Tagged date : UTC 2009-06-14 18:22:14
Comment : New Divide | Song from the movie - Transformers Revenge of The Fallen | Artist:Linkin Park | Genre:Soundtrack | Year:2009
Video
ID : 2
Format : AVC
Format/Info : Advanced Video Codec
Format profile : [email protected]
Format settings, CABAC : Yes
Format settings, ReFrames : 3 frames
Codec ID : avc1
Codec ID/Info : Advanced Video Coding
Duration : 4mn 26s
Bit rate mode : Variable
Bit rate : 1 999 Kbps
Maximum bit rate : 8 609 Kbps
Width : 1 280 pixels
Height : 720 pixels
Display aspect ratio : 16:9
Frame rate mode : Constant
Frame rate : 23.976 fps
Resolution : 24 bits
Colorimetry : 4:2:0
Scan type : Progressive
Bits/(Pixel*Frame) : 0.090
Stream size : 63.4 MiB (94%)
Title : (C) 2007 Google Inc. v08.13.2007.
Encoded date : UTC 2009-06-14 18:22:15
Tagged date : UTC 2009-06-14 18:22:16
Audio
ID : 1
Format : AAC
Format/Info : Advanced Audio Codec
Format version : Version 4
Format profile : LC
Format settings, SBR : No
Codec ID : 40
Duration : 4mn 26s
Bit rate mode : Variable
Bit rate : 125 Kbps
Maximum bit rate : 137 Kbps
Channel(s) : 2 channels
Channel positions : L R
Sampling rate : 44.1 KHz
Resolution : 16 bits
Stream size : 3.99 MiB (6%)
Title : (C) 2007 Google Inc. v08.13.2007.
Encoded date : UTC 2009-06-14 18:22:14
Tagged date : UTC 2009-06-14 18:22:16
Release nameLinkin Park New Divide HD Music Video Subtitle23.976 FPS
Uploaderasshide @ . downloaded3025x () . Remove from favouritesAdd to favourites . Correct subtitlesCorrect subtitles

Uploaded from MX Player v1 developed by mx player

Comment

log-in to post comments.

Linkin Park: video lyrics subtitles English
Release name#CD UploadedDownloadedSubtitle ratingUploader
Linkin Park - Castle Of Glass (feat. in Medal of Honor War... 1CD749x 0.00asshide
Linkin Park - Castle Of Glass1CD1589x 0.00BhagirathBB
Linkin Park - Lost In The Echo - YoutubeSubtitles for hearing impaired1CD771x 0.00asshide
Linkin Park - Iridescent [HD] - OST - Transformers:Dark of... Subtitles for hearing impaired1CD2142x 0.00asshide
Linkin Park - Leave Out All The Rest Music Video1CD696x 0.00asshide
Linkin Park - The Catalyst [Album - A Thousand Suns]1CD1081x 0.00asshide
Linkin Park - In The End [Album - Hybrid Theory]1CD1908x 0.00asshide
Interesting links
All subtitles for this movie in this languageAll subtitles for this movie
All subtitles from this userRequest this subtitle for a different release
Release:Release @ http://www.btarena.orgRelease @ http://nfo.raidrush.ws
Others:Your link here
Movie detailsAKA:Linkin Park - Castle Of Glass (feat. in Medal of Honor Warfighter) @linkinpartvevo (eng)
Hide ads
download subtitle