Werbeblocker erkannt, bitte überlege www.OpenSubtitles.org auf andere Weise zu unterstützen
X
Erweiterte Suche
Werbeanzeige entfernen

Fear and Loathing in Las Vegas Deutsch Untertitel (1998) 1CD srt

film

Bei Amazon kaufen

Untertitel-Details

Herunterladen
Danke1 Bedankungen erhalten

Bewerte die Qualität der Untertitel

Bewerte die QUALITÄT der Untertitel mit %wert% Punkten (%wert2%)Bewerte die QUALITÄT der Untertitel mit %wert% Punkten (%wert2%)Bewerte die QUALITÄT der Untertitel mit %wert% Punkten (%wert2%)Bewerte die QUALITÄT der Untertitel mit %wert% Punkten (%wert2%)Bewerte die QUALITÄT der Untertitel mit %wert% Punkten (%wert2%)

kommentieren

Untertitel-DateinameFear.And.Loathing.In.Las Vegas.dvdrip,DivX[Axxo].DE.srt (117762Bytes) Vorschau anzeigen

Uploader-KommentarFormat : AVI
Format/Info : Audio Video Interleave
File size : 698 MiB
Duration : 1h 58mn
Overall bit rate : 824 Kbps
Writing library : VirtualDub build 10740/release
Video
ID : 0
Format : MPEG-4 Visual
Codec ID : DIV3
Codec ID/Hint : DivX 3 Low
Duration : 1h 58mn
Bit rate : 654 Kbps
Width : 640 pixels
Height : 272 pixels
Display aspect ratio : 2.35:1
Frame rate : 23.976 fps
Color space : YUV
Chroma subsampling : 4:2:0
Bit depth : 8 bits
Compression mode : Lossy
Bits/(Pixel*Frame) : 0.157
Stream size : 554 MiB (79%)
Audio
ID : 1
Format : MPEG Audio
Format version : Version 1
Format profile : Layer 3
Codec ID : 55
Codec ID/Hint : MP3
Duration : 1h 58mn
Bit rate mode : Constant
Bit rate : 160 Kbps
Channel(s) : 2 channels
Sampling rate : 48.0 KHz
Compression mode : Lossy
Stream size : 136 MiB (19%)
Alignment : Split accross interleaves
Interleave, duration : 42 ms (1.00 video frame)
Interleave, preload duration : 500 ms
Release-NameFear.And.Loathing.In.Las Vegas.dvdrip,DivX[Axxo]23.976 FPS
Uploaderigor116 @ . heruntergeladen10716x () . Von den Favoriten entfernenZu den Favoriten hinzufügen . Untertiteldaten korrigierenUntertiteldaten korrigieren

Hochgeladen mit SubDownloader 1.2.9 entwickelt von capiscuas

kommentieren

anmelden um Kommentare zu erstellen.

Fear and Loathing in Las Vegas Untertitel Deutsch
Release-Name#CD HochgeladenHeruntergeladenUntertitel-BewertungUploader
Fear.and.Loathing.in.Las.Vegas.1998.1080p.Open.Matte.Direc... Untertitel von vertrauenswürdiger Quelle1CD22x 10.00arcchancellor
fear and loathing in las vegas dc german corr.srtUntertitel von vertrauenswürdiger Quelle1CD356x 0.00arcchancellor
fear and loathing in las vegas german dvd.srtUntertitel von vertrauenswürdiger Quelle1CD737x 0.00arcchancellor
Fear and Loathing in Las Vegas (1998)1CD1757x 1.00jeas (a)
Interessante Links
Alle Untertitel für diesen Film in dieser SpracheAlle Untertitel für diesen Film
Alle Untertitel von diesem BenutzerDiese Untertitel für ein anderes Release anfordern
Über den Film:Über den Film @ http://www.imdb.comDateisuche:Dateisuche @ http://housemovie.toFear and Loathing in Las Vegas downloadDownload warezDateisuche @ http://raidrush.ws
Release:Release @ http://www.btarena.orgRelease @ http://nfo.raidrush.wsTrailer:Trailer @ http://www.imdb.com
Poster:Fear and Loathing in Las Vegas movie postersPoster @ http://www.imdb.comCovers:Covers @ https://www.allcdcovers.comCovers @ http://www.cdcovers.ccCovers @ http://www.cdcovers.to
Andere:Dein Link hier
FilmdetailsAlternativtitel:Angst und Schrecken in Las Vegas (ger), Fear and Loathing in las Vegas (eng), Medo e Delírio (eng), Страх i огида в Лас-Вегасi (eng)
Filmbewertung:7.7 / 10 (231445)
[ Kauf dir ein Ticket und steig ein ] - Wir waren kurz hinter Barstow, inmitten der Wüste, als die Drogen anfingen zu wirken...Nevada, 1971: Begleitet von seinem Anwalt Dr. Gonzo rast Raoul Duke in seinem roten Cabrio gen Las Vegas. Für ein Magazin soll er dort von einem Autorennen in der Wüste berichten. Doch für die beiden steckt hinter dem Ausflug sehr viel mehr als eine bloße Reportage. Für sie bedeutet der Trip nach Las Vegas eine Reise in das wilde Herz der von Vietnamkrieg und diverser Skandale gebeutelten Vereinigten Staaten, bei der sie den amerikanischen Traum bei den Hörnern packen und ihm in die hässliche Fratze starren wollen. Ausgerüstet mit jeder denkbaren Droge unter der Sonne brechen sie auf zu ihrer Mission - und lassen sich dabei auch nicht von feindseligen Drogencops, dienst bewussten Highwaypolizisten, arroganten Hotelangestellten und ständig wiederkehrenden Horrortrips unterkriegen.
Drehbuch/Buchvorlage:
Land:
Sprache:
Werbeanzeige entfernen
download subtitle