Missing Privacy  Support us:
X
Erweiterte Suche
Sieh dir untertitelte Filme mit dem Open Subtitles MKV Player an. Er ist gratis, frei von Schädlingen und läuft unter Windows.

Contact Deutsch Untertitel (1997) 1CD srt

film

Bei Amazon kaufen

Untertitel-Details

Herunterladen
Danke

Bewerte die Qualität der Untertitel

Bewerte die QUALITÄT der Untertitel mit %wert% Punkten (%wert2%)Bewerte die QUALITÄT der Untertitel mit %wert% Punkten (%wert2%)Bewerte die QUALITÄT der Untertitel mit %wert% Punkten (%wert2%)Bewerte die QUALITÄT der Untertitel mit %wert% Punkten (%wert2%)Bewerte die QUALITÄT der Untertitel mit %wert% Punkten (%wert2%)

kommentieren

Untertitel-DateinameContact (1997) [DVDRip].DE.srt (136141Bytes) Vorschau anzeigen

Uploader-KommentarFormat : AVI
Format/Info : Audio Video Interleave
File size : 710 MiB
Duration : 2h 15mn
Overall bit rate : 731 Kbps
Writing library : VirtualDub build 12667/release
Video
ID : 0
Format : MPEG-4 Visual
Codec ID : DIV3
Codec ID/Hint : DivX 3 Low
Duration : 2h 15mn
Bit rate : 628 Kbps
Width : 640 pixels
Height : 352 pixels
Display aspect ratio : 16:9
Frame rate : 25.000 fps
Color space : YUV
Chroma subsampling : 4:2:0
Bit depth : 8 bits
Bits/(Pixel*Frame) : 0.112
Stream size : 610 MiB (86%)
Audio
ID : 1
Format : MPEG Audio
Format version : Version 1
Format profile : Layer 3
Mode : Joint stereo
Mode extension : Intensity Stereo
Codec ID : 55
Codec ID/Hint : MP3
Duration : 2h 15mn
Bit rate mode : Constant
Bit rate : 96.0 Kbps
Channel(s) : 2 channels
Sampling rate : 44.1 KHz
Stream size : 93.2 MiB (13%)
Alignment : Split accross interleaves
Interleave, duration : 100 ms (2.50 video frames)
Interleave, preload duration : 500 ms
Release-NameContact (1997) [DVDRip]25.000 FPS
Uploaderigor116 @ . heruntergeladen722x () . Von den Favoriten entfernenZu den Favoriten hinzufügen . Untertiteldaten korrigierenUntertiteldaten korrigieren

Hochgeladen mit SubDownloader 1.2.9 entwickelt von capiscuas

kommentieren

anmelden um Kommentare zu erstellen.

Contact Untertitel Deutsch
Release-Name#CD HochgeladenHeruntergeladenUntertitel-BewertungUploader
Contact.1997.German.SDH.BDRip.RetailUntertitel für Hörgeschädigte1CD184x 0.00MobyDick100
CONTACT97_PALUntertitel für Hörgeschädigte1CD59x 7.00
contact_de_hiUntertitelversionUntertitel für Hörgeschädigte1CD103x 0.01hectorlahoz
Interessante Links
Alle Untertitel für diesen Film in dieser SpracheAlle Untertitel für diesen Film
Alle Untertitel von diesem BenutzerDiese Untertitel für ein anderes Release anfordern
Über den Film:Über den Film @ http://www.imdb.comDateisuche:Contact downloadContact SevenTorrentsDownload warezDateisuche @ http://raidrush.ws
Release:Release @ http://www.btarena.orgRelease @ http://nfo.raidrush.wsOffizielle Website:Warner Bros. [us]
Trailer:Trailer @ http://www.imdb.comPoster:Contact movie postersPoster @ http://www.imdb.com
Covers:Covers @ http://www.allcdcovers.comCovers @ http://www.cdcovers.ccCovers @ http://www.cdcovers.to
Untertitel:Untertitel @ https://hitsubtitles.comAndere:Dein Link hier
FilmdetailsAlternativtitel:Contact (eng), Контакт (eng)
Filmbewertung:7.4 / 10 (214951)
[ Basierend auf dem Roman von Carl Sagan (1985). ] - Die Wissenschaftlerin Ellie Arroway ist besessen von der Idee, die Existenz außerirdischer Intelligenz zu beweisen. Eines Tages gelingt es ihr tatsächlich, eine Nachricht aus dem All aufzuzeichnen. Eine fremde Lebensform macht ein verschlüsseltes Angebot zur Kontaktaufnahme! Unter weltweiter Beteiligung bereitet sich die Menschheit auf den aufregendsten Moment ihrer Geschichte vor.
Drehbuch/Buchvorlage:
Land:
download subtitle