Missing Privacy  Support us:
X
Erweiterte Suche
Sieh dir untertitelte Filme mit dem Open Subtitles MKV Player an. Er ist gratis, frei von Schädlingen und läuft unter Windows.
Um eine Suche nach allen passenden Untertiteln durchzuführen, klick einfach auf den Namen
Werbeanzeige entfernen

Ein Vogel auf dem Drahtseil Deutsch Untertitel (1990) 1CD srt

Herunterladen: Bird on a Wire movie

film

Bei Amazon kaufen

Untertitel-Details

Herunterladen
Danke

Bewerte die Qualität der Untertitel

Bewerte die QUALITÄT der Untertitel mit %wert% Punkten (%wert2%)Bewerte die QUALITÄT der Untertitel mit %wert% Punkten (%wert2%)Bewerte die QUALITÄT der Untertitel mit %wert% Punkten (%wert2%)Bewerte die QUALITÄT der Untertitel mit %wert% Punkten (%wert2%)Bewerte die QUALITÄT der Untertitel mit %wert% Punkten (%wert2%)

kommentieren

Vergiss das Web, hol dir Untertitel mit Open Subtitles MKV Player

Untertitel-DateinameBird On A Wire (1990) [DVDRip].DE.srt (89237Bytes) Vorschau anzeigen

Uploader-KommentarFormat : AVI
Format/Info : Audio Video Interleave
File size : 698 MiB
Duration : 1h 45mn
Overall bit rate : 921 Kbps
Writing application : MEncoder dev-CVS-060101-18:59-4.0.2
Writing library : MPlayer
Video
ID : 0
Format : MPEG-4 Visual
Format profile : Advanced [email protected]
Format settings, BVOP : Yes
Format settings, QPel : No
Format settings, GMC : No warppoints
Format settings, Matrix : Default (H.263)
Codec ID : XVID
Codec ID/Hint : XviD
Duration : 1h 45mn
Bit rate : 780 Kbps
Width : 640 pixels
Height : 272 pixels
Display aspect ratio : 2.35:1
Frame rate : 25.000 fps
Color space : YUV
Chroma subsampling : 4:2:0
Bit depth : 8 bits
Scan type : Progressive
Bits/(Pixel*Frame) : 0.179
Stream size : 591 MiB (85%)
Writing library : XviD 1.1.0 RC (UTC 2005-11-22)
Audio
ID : 1
Format : MPEG Audio
Format version : Version 1
Format profile : Layer 3
Mode : Joint stereo
Mode extension : MS Stereo
Codec ID : 55
Codec ID/Hint : MP3
Duration : 1h 45mn
Bit rate mode : Constant
Bit rate : 128 Kbps
Channel(s) : 2 channels
Sampling rate : 48.0 KHz
Stream size : 97.0 MiB (14%)
Alignment : Aligned on interleaves
Interleave, duration : 24 ms (0.60 video frame)
Interleave, preload duration : 504 ms
Release-NameBird On A Wire (1990) [DVDRip]25.000 FPS
Uploaderigor116 @ . heruntergeladen80x () . Von den Favoriten entfernenZu den Favoriten hinzufügen . Untertiteldaten korrigierenUntertiteldaten korrigieren

Hochgeladen mit SubDownloader 1.2.9 entwickelt von capiscuas

kommentieren

anmelden um Kommentare zu erstellen.

Family.Guy.S15E07.HDTV.x264-FLEET.mkv (108 MB) Ben.Hur.2016.720p.BRRip.x264.AAC-ETRG.mp (932 MB)
shameless.us.709.hdtv-lol.mkv (411 MB) the.flash.2014.308.hdtv-lol[ettv].mkv (279 MB)
Bird on a Wire Untertitel Deutsch
Release-Name#CD HochgeladenHeruntergeladenUntertitel-BewertungUploader
Ein Vogel auf dem Drahtseil - 1080p, AC3 2.0.german.srtUntertitel von vertrauenswürdiger Quelle1CD17x 0.00arcchancellor
Bird.On.a.Wire.1990.1080p.WEB-DL.AAC2.0.H264-FGT.german.srtUntertitel von vertrauenswürdiger Quelle1CD26x 10.00arcchancellor
bird on a wire german dvd.srtUntertitel von vertrauenswürdiger Quelle1CD30x 10.00arcchancellor
Bird on a Wire (1990)1CD695x 0.00lclclc (a)
Interessante Links
Alle Untertitel für diesen Film in dieser SpracheAlle Untertitel für diesen Film
Alle Untertitel von diesem BenutzerDiese Untertitel für ein anderes Release anfordern
Über den Film:Über den Film @ http://www.imdb.comDateisuche:Bird on a Wire downloadDownload warezDateisuche @ http://raidrush.ws
Release:Release @ http://www.btarena.orgRelease @ http://nfo.raidrush.wsTrailer:Trailer @ http://www.imdb.com
Poster:Bird on a Wire movie postersPoster @ http://www.imdb.comCovers:Covers @ http://www.allcdcovers.comCovers @ http://www.cdcovers.ccCovers @ http://www.cdcovers.to
Andere:Dein Link hier
FilmdetailsAlternativtitel:Ein Vogel auf dem Drahtseil (ger)
Filmbewertung:5.9 / 10 (31094)
[ He's every woman's dream and one woman's nightmare ] - Mit seiner Aussage gegen zwei Rauschgift-Gangster gewinnt Kronzeuge Rick Jarmin zwei Feinde fürs Leben. Trotz ständig wechselnder Identität spüren die Killer ihn wieder auf, als sie nach 15 Jahren aus dem Knast entlassen werden. Zufällig wird Rick zur gleichen Zeit von seiner ehemaligen Geliebten wiedererkannt, die er Knall auf Fall verlassen hat. Sie ist noch immer stinksauer auf ihn, aber die irrwitzige Verfolgungsjagd quer durch die USA, die sie sich mit den Killern liefern, verhindert die Rache – vorerst.
Drehbuch/Buchvorlage:
Land:
Sprache:
Werbeanzeige entfernen
download subtitle