Werbeblocker erkannt, bitte überlege www.OpenSubtitles.org auf andere Weise zu unterstützen
X
Erweiterte Suche
Sieh dir untertitelte Filme mit dem Open Subtitles MKV Player an. Er ist gratis, frei von Schädlingen und läuft unter Windows.

Untertitel für Hörgeschädigte

Keine halben Sachen Deutsch Untertitel (2000) 1CD srt

film

Bei Amazon kaufen

Untertitel-Details

Herunterladen
Danke

Bewerte die Qualität der Untertitel

Bewerte die QUALITÄT der Untertitel mit %wert% Punkten (%wert2%)Bewerte die QUALITÄT der Untertitel mit %wert% Punkten (%wert2%)Bewerte die QUALITÄT der Untertitel mit %wert% Punkten (%wert2%)Bewerte die QUALITÄT der Untertitel mit %wert% Punkten (%wert2%)Bewerte die QUALITÄT der Untertitel mit %wert% Punkten (%wert2%)

kommentieren

Untertitel-DateinameThe.Whole.Nine.Yards.2000.WS.Int.DVDRip.XviD-DoggPound.DE.HI.srt (78073Bytes) Vorschau anzeigen

Uploader-KommentarFormat : AVI
Format/Info : Audio Video Interleave
File size : 697 MiB
Duration : 1h 38mn
Overall bit rate : 985 Kbps
Writing application : VirtualDubMod 1.5.10.2 (build 2540/release)
Writing library : VirtualDubMod build 2540/release
Video
ID : 0
Format : MPEG-4 Visual
Format profile : Advanced [email protected]
Format settings, BVOP : Yes
Format settings, QPel : No
Format settings, GMC : No warppoints
Format settings, Matrix : Default (H.263)
Muxing mode : Packed bitstream
Codec ID : XVID
Codec ID/Hint : XviD
Duration : 1h 38mn
Bit rate : 778 Kbps
Width : 544 pixels
Height : 296 pixels
Display aspect ratio : 16:9
Frame rate : 23.976 fps
Color space : YUV
Chroma subsampling : 4:2:0
Bit depth : 8 bits
Scan type : Progressive
Bits/(Pixel*Frame) : 0.201
Stream size : 550 MiB (79%)
Writing library : XviD 1.1.2 (UTC 2006-11-01)
Audio
ID : 1
Format : MPEG Audio
Format version : Version 1
Format profile : Layer 3
Mode : Joint stereo
Codec ID : 55
Codec ID/Hint : MP3
Duration : 1h 38mn
Bit rate mode : Variable
Bit rate : 192 Kbps
Channel(s) : 2 channels
Sampling rate : 48.0 KHz
Stream size : 138 MiB (20%)
Alignment : Aligned on interleaves
Interleave, duration : 24 ms (0.58 video frame)
Interleave, preload duration : 82 ms
Writing library : LAME3.90.3
Release-NameThe.Whole.Nine.Yards.2000.WS.Int.DVDRip.XviD-DoggPound23.976 FPS
Uploaderigor116 @ . heruntergeladen183x () . Von den Favoriten entfernenZu den Favoriten hinzufügen . Untertiteldaten korrigierenUntertiteldaten korrigieren

Hochgeladen mit SubDownloader 1.2.9 entwickelt von capiscuas

kommentieren

anmelden um Kommentare zu erstellen.

The Whole Nine Yards Untertitel Deutsch
Release-Name#CD HochgeladenHeruntergeladenUntertitel-BewertungUploader
The Whole Nine Yards1CD1549x 0.00repher (a)
The Whole Nine Yards1CD134x 0.00crackjack (a)
Interessante Links
Alle Untertitel für diesen Film in dieser SpracheAlle Untertitel für diesen Film
Alle Untertitel von diesem BenutzerDiese Untertitel für ein anderes Release anfordern
Über den Film:Über den Film @ http://www.imdb.comDateisuche:The Whole Nine Yards downloadDownload warezDateisuche @ http://raidrush.ws
Release:Release @ http://www.btarena.orgRelease @ http://nfo.raidrush.wsOffizielle Website:Warner Bros.
Trailer:Trailer @ http://www.imdb.comPoster:The Whole Nine Yards movie postersPoster @ http://www.imdb.com
Covers:Covers @ http://www.allcdcovers.comCovers @ http://www.cdcovers.ccCovers @ http://www.cdcovers.to
Untertitel:Untertitel @ https://hitsubtitles.comAndere:Dein Link hier
FilmdetailsAlternativtitel:Keine halben Sachen (ger), Whole nine yards (eng)
Filmbewertung:6.7 / 10 (93876)
[ Früher ließ er andere ins Gras beißen - Heute mäht er es lieber selbst ... und beides sehr gründlich ] - Das Leben des erfolglosen Zahnarztes Oz Oseransky könnte ganz einfach sein, gäbe es da nicht seine nervige Ehefrau, eine geldgierige Furie, die ihn wegen seiner Lebensversicherung lieber tot sehen würde. Doch plötzlich kommt Schwung in Oz Leben, denn Jimmy "Die Tulpe" Tudeski zieht in das Haus nebenan. Jimmy ist ein knallharter Mafiakiller, auf der Flucht vor seinem ehemaligen Auftraggeber, der dafür sorgt, dass Oz Leben nie mehr so sein wird, wie es einmal war. Plötzlich befindet er sich mitten in einem chaotischen Abenteuer, in dem eine Leiche nach der anderen seinen Weg pflastert und die Überlebenden am Ende zehn Millionen Dollar erwarten...
Drehbuch/Buchvorlage:
Land:
Werbeanzeige entfernen
download subtitle