Missing Privacy  Support us:
X
Erweiterte Suche
Sieh dir untertitelte Filme mit dem Open Subtitles MKV Player an. Er ist gratis, frei von Schädlingen und läuft unter Windows.
Wir empfehlen, die Links bei dem Menüpunkt interessante Links mal näher anzusehen
Werbeanzeige entfernen

Last Boy Scout - Das Ziel ist Überleben Deutsch Untertitel (1991) 1CD srt

Herunterladen: The Last Boy Scout movie

film

Bei Amazon kaufen

Untertitel-Details

Herunterladen
Danke

Bewerte die Qualität der Untertitel

Bewerte die QUALITÄT der Untertitel mit %wert% Punkten (%wert2%)Bewerte die QUALITÄT der Untertitel mit %wert% Punkten (%wert2%)Bewerte die QUALITÄT der Untertitel mit %wert% Punkten (%wert2%)Bewerte die QUALITÄT der Untertitel mit %wert% Punkten (%wert2%)Bewerte die QUALITÄT der Untertitel mit %wert% Punkten (%wert2%)

kommentieren

Add subtitles to your movies with Freemake Video Converter

Untertitel-DateinameThe.Last.Boy.Scout.1991.DVDRip.Xvid.iNT-420Ripz.DE.srt (86939Bytes) Vorschau anzeigen

Uploader-KommentarFormat : AVI
Format/Info : Audio Video Interleave
File size : 699 MiB
Duration : 1h 45mn
Overall bit rate : 928 Kbps
Writing application : VirtualDubMod 1.5.4.1 (build 2178/release)
Writing library : VirtualDubMod build 2178/release
Video
ID : 0
Format : MPEG-4 Visual
Format profile : Advanced [email protected]
Format settings, BVOP : Yes
Format settings, QPel : No
Format settings, GMC : No warppoints
Format settings, Matrix : Custom
Codec ID : XVID
Codec ID/Hint : XviD
Duration : 1h 45mn
Bit rate : 601 Kbps
Width : 528 pixels
Height : 224 pixels
Display aspect ratio : 2.35:1
Frame rate : 23.976 fps
Color space : YUV
Chroma subsampling : 4:2:0
Bit depth : 8 bits
Scan type : Progressive
Bits/(Pixel*Frame) : 0.212
Stream size : 453 MiB (65%)
Writing library : XviD 1.2.0.dev45 (UTC 2006-07-10)
Audio
ID : 1
Format : MPEG Audio
Format version : Version 1
Format profile : Layer 3
Mode : Joint stereo
Codec ID : 55
Codec ID/Hint : MP3
Duration : 1h 45mn
Bit rate mode : Constant
Bit rate : 320 Kbps
Channel(s) : 2 channels
Sampling rate : 48.0 KHz
Stream size : 241 MiB (34%)
Alignment : Aligned on interleaves
Interleave, duration : 83 ms (2.00 video frames)
Interleave, preload duration : 504 ms
Writing library : LAME3.97 (beta)
Language : English
Release-NameThe.Last.Boy.Scout.1991.DVDRip.Xvid.iNT-420Ripz23.976 FPS
Uploaderigor116 @ . heruntergeladen85x () . Von den Favoriten entfernenZu den Favoriten hinzufügen . Untertiteldaten korrigierenUntertiteldaten korrigieren

Hochgeladen mit SubDownloader 1.2.9 entwickelt von capiscuas

kommentieren

anmelden um Kommentare zu erstellen.

Elle.2016.1080p.BluRay.DTS.x264-VietHD.m (13445 MB) The.Walking.Dead.S07E05.1080p.WEB-DL.x26 (896 MB)
Mechanic.Resurrection.2016.SLOSubs.DVDRi (1400 MB) Salem.S03E03.HDTV.x264-KILLERS[ettv].mkv (247 MB)
The Last Boy Scout Untertitel Deutsch
Release-Name#CD HochgeladenHeruntergeladenUntertitel-BewertungUploader
The.Last.Boy.Scout.1991.720p.BluRay.x264.DTS-WiKi.german.srtUntertitel von vertrauenswürdiger Quelle1CD63x 0.00arcchancellor
the last boy scout german dvd.srtUntertitel von vertrauenswürdiger Quelle1CD28x 0.00arcchancellor
DVDRip-XviD-DK1CD78x 0.00fishburne
DVDRip-XviD-DK (H.I.)Untertitel für Hörgeschädigte1CD54x 0.00fishburne
Last boy scout1CD1339x 1.00bogusincognito (a)
Last Boy Scout, The (1991)1CD117x 0.00wr975 (a)
Last Boy Scout, The (1991)1CD66x 0.00galocza (a)
Interessante Links
Alle Untertitel für diesen Film in dieser SpracheAlle Untertitel für diesen Film
Alle Untertitel von diesem BenutzerDiese Untertitel für ein anderes Release anfordern
Über den Film:Über den Film @ http://www.imdb.comDateisuche:The Last Boy Scout downloadThe Last Boy Scout SevenTorrentsDownload warezDateisuche @ http://raidrush.ws
Release:Release @ http://www.btarena.orgRelease @ http://nfo.raidrush.wsTrailer:Trailer @ http://www.imdb.com
Poster:The Last Boy Scout movie postersPoster @ http://www.imdb.comCovers:Covers @ http://www.allcdcovers.comCovers @ http://www.cdcovers.ccCovers @ http://www.cdcovers.to
Andere:Dein Link hier
FilmdetailsAlternativtitel:Last Boy Scout - Das Ziel ist Überleben (ger)
Filmbewertung:6.9 / 10 (76390)
[ Amerikas letzter Held. ] - Seinen schönen Job als Bodyguard des US-Präsidenten hat Joe Hallenbeck vor Jahren verloren. Aber als abgewrackter Privatdetektiv zieht er die Gefahr an wie ein Magnet. Nach “Stirb langsam” geht es für Superstar Bruce Willis im Kampf gegen die millionenschwere Football-Mafia von L.A. jetzt ums nackte Überleben. Bruce Willis und Damon Wayans liefern sich einen Schlagabtausch mit coolen Sprüchen und knallharter Action.
Drehbuch/Buchvorlage:
Land:
Sprache:
Werbeanzeige entfernen
download subtitle